Watch movie | Ann Ogbomo | Danielle PanabakerLa princesa del agua / The Water Princess: Basado En La Infancia De Georgie Badiel | Transformers: The Last Knight | PL Klan [s01 e3315]

Deadpool 2 (2018) English - 720p - HDCAMRip - x264 - AAC - 1GB ~S...

  • Category Movies
  • Type h.264/x264
  • Language English
  • Total size 1,002.7 MB
  • Uploaded By Saransh
  • Downloads 140
  • Last checked 47 minutes ago
  • Date uploaded 14 hours ago
  • Seeders 1
  • Leechers 1

Deadpool 2

ActionComedyScience Fiction

Wisecracking mercenary Deadpool battles the evil and powerful Cable and other bad guys to save a boy's life.

Infohash : 96AD68B970B32F259A3D3456F9552896D50772E4

Deadpool 2 (2018) English - 720p - HDCAMRip - x264 - AAC - 1GB ~Saransh



General
Format : Matroska
Format version : Version 4 / Version 2
File size : 1 003 MiB
Duration : 1 h 49 min
Overall bit rate : 1 281 kb/s
Movie name : Deadpool 2 (2018) English 720p HDCAM-Rip x264 AAC ~Saransh
Encoded date : UTC 2018-05-17 04:14:04
Writing application : mkvmerge v23.0.0 ('The Bride Said No') 64-bit
Writing library : libebml v1.3.6 + libmatroska v1.4.9

Video
ID : 1
Format : AVC
Format/Info : Advanced Video Codec
Format profile : [email protected]
Format settings : CABAC / 5 Ref Frames
Format settings, CABAC : Yes
Format settings, RefFrames : 5 frames
Codec ID : V_MPEG4/ISO/AVC
Duration : 1 h 49 min
Bit rate : 1 152 kb/s
Width : 1 280 pixels
Height : 516 pixels
Display aspect ratio : 2.481
Frame rate mode : Constant
Frame rate : 29.970 (30000/1001) FPS
Color space : YUV
Chroma subsampling : 4:2:0
Bit depth : 8 bits
Scan type : Progressive
Bits/(Pixel*Frame) : 0.058
Stream size : 900 MiB (90%)
Title : -::-Saransh-::-
Writing library : x264 core 148 r2643 5c65704
Language : English
Default : Yes
Forced : No

Audio
ID : 2
Format : AAC
Format/Info : Advanced Audio Codec
Format profile : LC
Codec ID : A_AAC-2
Duration : 1 h 49 min
Bit rate : 128 kb/s
Channel(s) : 2 channels
Channel positions : Front: L R
Sampling rate : 48.0 kHz
Frame rate : 46.875 FPS (1024 SPF)
Compression mode : Lossy
Delay relative to video : -21 ms
Stream size : 101 MiB (10%)
Title : -::-Saransh-::-
Language : English
Default : Yes
Forced : No



SCREENSHOTS

Files:

  • Deadpool 2 (2018) English - 720p - HDCAMRip - x264 - AAC - 1GB ~Saransh.mkv (1,002.7 MB)

There are currently no comments. Feel free to leave one :)

Code:

  • UDP://TRACKER.LEECHERS-PARADISE.ORG:6969/ANNOUNCE